VR片源吧

找回密码
立即注册
搜索
热搜: 活动 交友 discuz
发新帖
查看: 143|回复: 2

[4K_MV] [高清演唱会]Taylor Swift - Blank Space(2015年全英音乐奖现场版)[1080i/TS/1.37GB]

[复制链接]

3108

主题

3111

帖子

9619

积分

管理员

Rank: 9Rank: 9Rank: 9

积分
9619
发表于 2017-12-8 16:28:07 | 显示全部楼层 |阅读模式
[高清演唱会]Taylor Swift - Blank Space(2015年全英音乐奖现场版)[1080i/TS/1.37GB]
153223x0op8911jozl0v8n.jpg 153224cy9w9t9gppnkphnl.jpg 153225np9l5gq59y9gqua3.jpg 153226saunvafsarlqafaw.jpg 153227z99it7ee7eirhqef.jpg 153229v5otn6ttzwjd5ow6.jpg 153230ybrw3wz6z7poxbr6.jpg 153231toztkak4t0zy77t4.jpg 153232lhc97y7ccrrrhguz.jpg 153233jan09gq6npe6bzuz.jpg 153235d6d701pib9a96p90.jpg 153236a2jxjs846767sj8t.jpg

General
ID : 1 (0x1)
Complete name : Taylor Swift - Blank Space - BRIT Awards 2015 1080i HDTV 45 Mbps MPA2.0 4-2-2 H.264-TrollHD.ts
Format : MPEG-TS
File size : 1.37 GiB
Duration : 4 min 13 s
Overall bit rate mode : Variable
Overall bit rate : 46.3 Mbps
Maximum Overall bit rate : 35.5 Mbps

Video
ID : 4113 (0x1011)
Menu ID : 1 (0x1)
Format : AVC
Format/Info : Advanced Video Codec
Format profile : High 4:2:2@L4.1
Format settings, CABAC : Yes
Format settings, ReFrames : 4 frames
Codec ID : 27
Duration : 4 min 14 s
Bit rate mode : Variable
Bit rate : 43.7 Mbps
Maximum bit rate : 40.0 Mbps
Width : 1920 pixels
Height : 1080 pixels
Display aspect ratio : 16:9
Frame rate : 25.000 FPS
Color space : YUV
Chroma subsampling : 4:2:2
Bit depth : 8 bits
Scan type : Interlaced
Scan type, store method : Separated fields
Scan order : Top Field First
Bits/(Pixel*Frame) : 0.843
Stream size : 1.29 GiB (95%)
Color range : Limited
Color primaries : BT.709
Transfer characteristics : BT.709
Matrix coefficients : BT.709

Audio
ID : 4352 (0x1100)
Menu ID : 1 (0x1)
Format : MPEG Audio
Format version : Version 1
Format profile : Layer 2
Codec ID : 4
Duration : 4 min 13 s
Bit rate mode : Constant
Bit rate : 256 kbps
Channel(s) : 2 channels
Sampling rate : 48.0 kHz
Compression mode : Lossy
Delay relative to video : 30 ms
Stream size : 7.74 MiB (1%)
Language : English
播放器 :
Potplaye/MPC-HC



载地址 复制链接打开!下载请回复,你的回复是我更新的最大动力!

游客,如果您要查看本帖隐藏内容请回复

回复

使用道具 举报

0

主题

1

帖子

4

积分

新手上路

Rank: 1

积分
4
发表于 2018-2-22 03:15:47 | 显示全部楼层
xiazaidizhizaina
回复

使用道具 举报

0

主题

149

帖子

299

积分

中级会员

Rank: 3Rank: 3

积分
299
发表于 2018-3-27 09:28:54 | 显示全部楼层
1111111111111111111111111111111
回复

使用道具 举报

您需要登录后才可以回帖 登录 | 立即注册

Archiver|手机版|小黑屋|VR片源吧

GMT+8, 2018-5-28 01:46 , Processed in 0.135378 second(s), 24 queries .

Powered by Discuz! X3.4

© 2001-2017 Comsenz Inc.

快速回复 返回顶部 返回列表