VR片源吧

找回密码
立即注册
搜索
热搜: 活动 交友 discuz
发新帖
查看: 58|回复: 1

[4K_MV] [美国高清MV]Taylor Swift - New Romantics 2016(BluRayMasterRip_60fps)

[复制链接]

3108

主题

3111

帖子

9619

积分

管理员

Rank: 9Rank: 9Rank: 9

积分
9619
发表于 2017-12-8 18:05:22 | 显示全部楼层 |阅读模式
[美国高清MV]Taylor Swift - New Romantics 2016(BluRayMasterRip_60fps)
[1080P/MKV/389M](DTS 5.1)


173833v9h8blymmjljklrk.jpg

173834h5w0tmc35x0ov7c0.jpg

173834t71kj1k90k10lksk.jpg

173835bw6zcoshs8pdc7s2.jpg

173835dw52qwoox9oi58pu.jpg

173835ttaab0t6yynxnzpn.jpg

General # 1
Unique ID : 207971513186682050914281484071028668293 (0x9C75DB42712BBB43B3DE12EE47E03785)
Complete name : Taylor Swift - New Romantics.BluRayMasterRip.1080p.60fps.x264.DualAudio.AC3.DTS.xKARACHPLUS.mkv
Format : Matroska
Format version : Version 4 / Version 2
File size : 389 MiB
Duration : 4 min 21 s
Overall bit rate : 12.5 Mbps
Movie name  : BY->:KARACHPLUS
Encoded date : UTC 2016-04-17 04:41:10
Writing application : mkvmerge v7.1.0 ('Good Love') 32bit built on Jul 27 2014 12:59:18
Writing library : libebml v1.3.0 + libmatroska v1.4.1

Video # 1
ID : 1
Format : AVC
Format/Info : Advanced Video Codec
Format profile : High@L5.1
Format settings, CABAC : No
Format settings, ReFrames : 1 frame
Codec ID : V_MPEG4/ISO/AVC
Duration : 4 min 21 s
Bit rate : 10.9 Mbps
Width : 1920 pixels
Height : 1080 pixels
Display aspect ratio : 16:9
Frame rate mode : Constant
Frame rate : 59.940 (59940/1001) FPS
Original frame rate : 60.000 FPS
Color space : YUV
Chroma subsampling : 4:2:0
Bit depth : 8 bits
Scan type : Progressive
Bits/(Pixel*Frame) : 0.088
Stream size : 328 GiB (84%)
Title : KARACHPLUS
Writing library : x264 core 116 r2019 9cc407d
Encoding settings : cabac=0 / ref=1 / deblock=1:0:0 / analyse=0x3:0x133 / me=hex / subme=7 / psy=1 /  psy_rd=1.00:0.00 / mixed_ref=0 / me_range=16 / chroma_me=1 / trellis=1 / 8x8dct=1 / cqm=0 / deadzone=21,11 / fast_pskip=1 / chroma_qp_offset=-2 / threads=6 /
Language : English
Default : Yes
Forced : No

Audio # 1
ID : 2
Format : DTS
Format/Info : Digital Theater Systems
Mode : 16
Format settings, Endianness : Big
Codec ID : A_DTS
Duration : 4 min 21 s
Bit rate mode : Constant
Bit rate : 1509 Kbps
Channel(s) : 6 channels
Channel positions : Front: L C R, Side: L R, LFE
Sampling rate : 48.0 KHz
Frame rate : 93.750 FPS (512 spf)
Bit depth : 16 bits
Compression mode : Lossy
Stream size : 47.0 MiB (12%)
Title : English DTS 5.1 1536Kbps - KARACHPLUS
Language : English
Default : Yes
Forced : No

Audio # 2
ID : 3
Format : AC-3
Format/Info : Audio Coding 3
Mode extension : CM (complete main)
Format settings, Endianness : Big
Codec ID : A_AC3
Duration : 4 min 21 s
Bit rate mode : Constant  
Bit rate : 448 Kbps  
Channel(s) : 2 channels
Channel positions : Front: L R
Sampling rate : 48.0 KHz
Frame rate : 31.250 FPS (1536 spf)
Bit depth : 16 bits
Compression mode : Lossy
Stream size : 14.0 MiB (4%)
Title : English AC-3 2.0 448Kbps - KARACHPLUS
Language : English
Default : No
Forced : No


载地址 复制链接打开!下载请回复,你的回复是我更新的最大动力!

游客,如果您要查看本帖隐藏内容请回复



回复

使用道具 举报

0

主题

239

帖子

455

积分

年费VIP会员

积分
455
发表于 2018-4-17 22:45:16 | 显示全部楼层
Taylor Swift
回复

使用道具 举报

您需要登录后才可以回帖 登录 | 立即注册

Archiver|手机版|小黑屋|VR片源吧

GMT+8, 2018-5-28 01:46 , Processed in 0.131684 second(s), 23 queries .

Powered by Discuz! X3.4

© 2001-2017 Comsenz Inc.

快速回复 返回顶部 返回列表