VR片源吧

找回密码
立即注册
搜索
热搜: 活动 交友 discuz
发新帖
查看: 699|回复: 29

[4K_MV] [4K电影] [4K高清短片]中国西安 - 城墙 雁塔[2160P/MP4/530MB]

[复制链接]

3108

主题

3111

帖子

9555

积分

管理员

Rank: 9Rank: 9Rank: 9

积分
9555
发表于 2017-12-18 16:47:07 | 显示全部楼层 |阅读模式
154600hjecemf4enflfjvv.jpg

154601atyledn6nyynwdwd.jpg

154602tzrwztrpiccwvff4.jpg

154603exftcozqaooacsrf.jpg

154603ljm8nmgowsmne8ky.jpg

154605fcg2vggqms8mgggc.jpg

154607afcnyclznbmjzvlw.jpg

154607swqnbwqg2jgyqfdy.jpg

154608nlj9hkubapfg3kpo.jpg

154609clha5ee958e5akwo.jpg

154609qpqt4bu474px7sxh.jpg

154610evv998v85vvdd449.jpg

154611szv0pew688hveoro.jpg

General
Complete name : Xi'an, China- City Walls & Goose Pagodas in 4K (Ultra HD).mp4
Format : MPEG-4
Format profile : Base Media
Codec ID : dash (isom/iso2/avc1/mp41)
File size : 530 MiB
Duration : 4 min
Overall bit rate : 16.7 Mbps
Writing application : Lavf56.25.101

Video
ID : 1
Format : AVC
Format/Info : Advanced Video Codec
Format profile : High@L5.1
Format settings, CABAC : No
Format settings, ReFrames : 2 frames
Codec ID : avc1
Codec ID/Info : Advanced Video Coding
Duration : 4 min
Bit rate : 16.5 Mbps
Width : 3840 pixels
Height : 2160 pixels
Display aspect ratio : 16:9
Frame rate mode : Constant
Frame rate : 29.970 (30000/1001) FPS
Color space : YUV
Chroma subsampling : 4:2:0
Bit depth : 8 bits
Scan type : Progressive
Bits/(Pixel*Frame) : 0.067
Stream size : 529 MiB (99%)
Color range : Limited
Color primaries : BT.709
Transfer characteristics : BT.709
Matrix coefficients : BT.709

Audio
ID : 2
Format : AAC
Format/Info : Advanced Audio Codec
Mode extension : LC
Codec ID : 40
Duration : 4 min
Bit rate mode : Constant
Bit rate : 126 kbps  
Channel(s) : 2 channels
Channel positions : Front: L R
Sampling rate : 44.1 KHz
Frame rate : 43.066 FPS (1024 spf)
Compression mode : Lossy
Stream size : 4.02 MiB (1%)
Default : Yes
Altternate group : 1

百度云盘
载地址 复制链接打开!下载请回复,你的回复是我更新的最大动力!

游客,如果您要查看本帖隐藏内容请回复
回复

使用道具 举报

0

主题

27

帖子

54

积分

永久VIP会员

积分
54
发表于 2017-12-18 18:29:39 | 显示全部楼层
不错 支持一个了
回复

使用道具 举报

0

主题

21

帖子

42

积分

永久VIP会员

积分
42
发表于 2017-12-18 21:26:27 | 显示全部楼层
撸过
回复

使用道具 举报

0

主题

32

帖子

64

积分

永久VIP会员

积分
64
发表于 2017-12-19 07:16:50 | 显示全部楼层
在撸一遍。。。
回复

使用道具 举报

0

主题

39

帖子

78

积分

永久VIP会员

积分
78
发表于 2017-12-19 10:45:03 | 显示全部楼层
报告!别开枪,我就是路过来看看的。。。
回复

使用道具 举报

0

主题

36

帖子

72

积分

永久VIP会员

积分
72
发表于 2017-12-19 16:33:37 | 显示全部楼层
嘘,低调。
回复

使用道具 举报

0

主题

32

帖子

64

积分

永久VIP会员

积分
64
发表于 2017-12-20 13:09:27 | 显示全部楼层
确实不错,顶先
回复

使用道具 举报

0

主题

25

帖子

50

积分

永久VIP会员

积分
50
发表于 2017-12-20 14:24:37 | 显示全部楼层
一直在看
回复

使用道具 举报

0

主题

36

帖子

72

积分

永久VIP会员

积分
72
发表于 2017-12-20 14:26:12 | 显示全部楼层
我是个凑数的。。。
回复

使用道具 举报

0

主题

36

帖子

72

积分

永久VIP会员

积分
72
发表于 2017-12-20 14:35:13 | 显示全部楼层
占位编辑
回复

使用道具 举报

0

主题

28

帖子

56

积分

永久VIP会员

积分
56
发表于 2017-12-20 14:42:48 | 显示全部楼层
LZ敢整点更有创意的不?兄弟们等着围观捏~
回复

使用道具 举报

0

主题

33

帖子

66

积分

永久VIP会员

积分
66
发表于 2017-12-20 14:57:18 | 显示全部楼层
看帖要回,回帖才健康,在踩踩,楼主辛苦了!
回复

使用道具 举报

0

主题

33

帖子

66

积分

永久VIP会员

积分
66
发表于 2017-12-20 15:04:13 | 显示全部楼层
这么强,支持楼主,佩服
回复

使用道具 举报

0

主题

34

帖子

68

积分

永久VIP会员

积分
68
发表于 2017-12-20 15:12:05 | 显示全部楼层
围观 围观 沙发在哪里!!!
回复

使用道具 举报

0

主题

31

帖子

62

积分

永久VIP会员

积分
62
发表于 2017-12-20 15:37:34 | 显示全部楼层
我也是坐沙发的
回复

使用道具 举报

0

主题

34

帖子

68

积分

永久VIP会员

积分
68
发表于 2017-12-20 17:07:48 | 显示全部楼层
顶起出售广告位
回复

使用道具 举报

0

主题

41

帖子

82

积分

永久VIP会员

积分
82
发表于 2017-12-20 17:36:22 | 显示全部楼层
路过的帮顶
回复

使用道具 举报

0

主题

26

帖子

52

积分

永久VIP会员

积分
52
发表于 2017-12-20 17:52:35 | 显示全部楼层
垃圾内容,路过为证。
回复

使用道具 举报

0

主题

25

帖子

50

积分

永久VIP会员

积分
50
发表于 2017-12-20 18:22:35 | 显示全部楼层
我也顶起出售广告位
回复

使用道具 举报

0

主题

39

帖子

78

积分

永久VIP会员

积分
78
发表于 2017-12-20 18:53:19 | 显示全部楼层
支持支持再支持
回复

使用道具 举报

您需要登录后才可以回帖 登录 | 立即注册

Archiver|手机版|小黑屋|VR片源吧

GMT+8, 2018-5-26 10:13 , Processed in 0.199963 second(s), 25 queries .

Powered by Discuz! X3.4

© 2001-2017 Comsenz Inc.

快速回复 返回顶部 返回列表