VR片源吧

找回密码
立即注册
搜索
热搜: 活动 交友 discuz
发新帖
查看: 945|回复: 40

[4K_MV] [4K高清短片]中国西安 - 城墙 雁塔[2160P/MP4/530MB]

[复制链接]

2481

主题

2484

帖子

7599

积分

管理员

Rank: 9Rank: 9Rank: 9

积分
7599
发表于 2017-12-18 16:30:04 | 显示全部楼层 |阅读模式
154600hjecemf4enflfjvv.jpg

154601atyledn6nyynwdwd.jpg

154602tzrwztrpiccwvff4.jpg

154603exftcozqaooacsrf.jpg

154603ljm8nmgowsmne8ky.jpg

154605fcg2vggqms8mgggc.jpg

154607afcnyclznbmjzvlw.jpg

154607swqnbwqg2jgyqfdy.jpg

154608nlj9hkubapfg3kpo.jpg

154609clha5ee958e5akwo.jpg

154609qpqt4bu474px7sxh.jpg

154610evv998v85vvdd449.jpg

154611szv0pew688hveoro.jpg



General
Complete name : Xi'an, China- City Walls & Goose Pagodas in 4K (Ultra HD).mp4
Format : MPEG-4
Format profile : Base Media
Codec ID : dash (isom/iso2/avc1/mp41)
File size : 530 MiB
Duration : 4 min
Overall bit rate : 16.7 Mbps
Writing application : Lavf56.25.101

Video
ID : 1
Format : AVC
Format/Info : Advanced Video Codec
Format profile : High@L5.1
Format settings, CABAC : No
Format settings, ReFrames : 2 frames
Codec ID : avc1
Codec ID/Info : Advanced Video Coding
Duration : 4 min
Bit rate : 16.5 Mbps
Width : 3840 pixels
Height : 2160 pixels
Display aspect ratio : 16:9
Frame rate mode : Constant
Frame rate : 29.970 (30000/1001) FPS
Color space : YUV
Chroma subsampling : 4:2:0
Bit depth : 8 bits
Scan type : Progressive
Bits/(Pixel*Frame) : 0.067
Stream size : 529 MiB (99%)
Color range : Limited
Color primaries : BT.709
Transfer characteristics : BT.709
Matrix coefficients : BT.709

Audio
ID : 2
Format : AAC
Format/Info : Advanced Audio Codec
Mode extension : LC
Codec ID : 40
Duration : 4 min
Bit rate mode : Constant
Bit rate : 126 kbps  
Channel(s) : 2 channels
Channel positions : Front: L R
Sampling rate : 44.1 KHz
Frame rate : 43.066 FPS (1024 spf)
Compression mode : Lossy
Stream size : 4.02 MiB (1%)
Default : Yes
Altternate group : 1

百度云盘
载地址 复制链接打开!下载请回复,你的回复是我更新的最大动力!


游客,如果您要查看本帖隐藏内容请回复

回复

使用道具 举报

0

主题

27

帖子

54

积分

永久VIP会员

积分
54
发表于 2017-12-18 18:22:17 | 显示全部楼层
顶起顶起顶起
回复

使用道具 举报

0

主题

39

帖子

78

积分

永久VIP会员

积分
78
发表于 2017-12-18 19:37:21 | 显示全部楼层
回个帖子,下班咯~
回复

使用道具 举报

0

主题

23

帖子

46

积分

永久VIP会员

积分
46
发表于 2017-12-18 21:10:27 | 显示全部楼层
佩服佩服!
回复

使用道具 举报

0

主题

25

帖子

50

积分

永久VIP会员

积分
50
发表于 2017-12-18 21:30:46 | 显示全部楼层
回个帖子,下班咯~
回复

使用道具 举报

0

主题

35

帖子

70

积分

永久VIP会员

积分
70
发表于 2017-12-19 09:02:25 | 显示全部楼层
LZ帖子不给力,勉强给回复下吧
回复

使用道具 举报

0

主题

29

帖子

58

积分

永久VIP会员

积分
58
发表于 2017-12-20 14:37:54 | 显示全部楼层
我只是路过,不发表意见
回复

使用道具 举报

0

主题

28

帖子

56

积分

永久VIP会员

积分
56
发表于 2017-12-20 14:48:32 | 显示全部楼层
求沙发
回复

使用道具 举报

0

主题

21

帖子

42

积分

永久VIP会员

积分
42
发表于 2017-12-20 14:49:27 | 显示全部楼层
有空一起交流一下
回复

使用道具 举报

0

主题

26

帖子

52

积分

永久VIP会员

积分
52
发表于 2017-12-20 14:53:54 | 显示全部楼层
支持,楼下的跟上哈~
回复

使用道具 举报

0

主题

28

帖子

56

积分

永久VIP会员

积分
56
发表于 2017-12-20 15:10:02 | 显示全部楼层
纯粹路过,没任何兴趣,仅仅是看在老用户份上回复一下
回复

使用道具 举报

0

主题

24

帖子

48

积分

永久VIP会员

积分
48
发表于 2017-12-20 15:16:44 | 显示全部楼层
专业抢沙发的!哈哈
回复

使用道具 举报

0

主题

25

帖子

50

积分

永久VIP会员

积分
50
发表于 2017-12-20 15:27:00 | 显示全部楼层
支持,赞一个
回复

使用道具 举报

0

主题

28

帖子

56

积分

永久VIP会员

积分
56
发表于 2017-12-20 15:27:57 | 显示全部楼层
是爷们的娘们的都帮顶!大力支持
回复

使用道具 举报

0

主题

39

帖子

78

积分

永久VIP会员

积分
78
发表于 2017-12-20 15:33:14 | 显示全部楼层
支持你哈...................................
回复

使用道具 举报

0

主题

32

帖子

64

积分

永久VIP会员

积分
64
发表于 2017-12-20 15:35:51 | 显示全部楼层
OMG!介是啥东东!!!
回复

使用道具 举报

0

主题

30

帖子

60

积分

永久VIP会员

积分
60
发表于 2017-12-20 15:37:12 | 显示全部楼层
元芳你怎么看?
回复

使用道具 举报

0

主题

27

帖子

54

积分

永久VIP会员

积分
54
发表于 2017-12-20 15:44:34 | 显示全部楼层
支持楼主,用户楼主,楼主英明呀!!!
回复

使用道具 举报

0

主题

31

帖子

62

积分

永久VIP会员

积分
62
发表于 2017-12-20 16:19:05 | 显示全部楼层
不错 支持一个了
回复

使用道具 举报

0

主题

29

帖子

58

积分

永久VIP会员

积分
58
发表于 2017-12-20 17:22:33 | 显示全部楼层
路过的帮顶
回复

使用道具 举报

您需要登录后才可以回帖 登录 | 立即注册

Archiver|手机版|小黑屋|VR片源吧

GMT+8, 2018-2-25 05:37 , Processed in 0.172553 second(s), 24 queries .

Powered by Discuz! X3.4

© 2001-2017 Comsenz Inc.

快速回复 返回顶部 返回列表